Billions S01 Season 1 720p WebRip ReEnc-DeeJayAhmed

seeders: 141
leechers: 21
updated:
Added by DeeJayPirate in TV
Torrent verified.

Billions S01 Season 1 720p WebRip ReEnc-DeeJayAhmed (Size: 4.9 GiB )
Billions.S01E01.Pilot.720p.WebRip.ReEnc-DeeJayAhmed.mkv431.39 MiB
Billions.S01E01.Pilot.720p.WebRip.ReEnc-DeeJayAhmed.srt86.28 KiB
Billions.S01E02.Naming.Rights.720p.WebRip.ReEnc-DeeJayAhmed.mkv397.27 MiB
Billions.S01E02.Naming.Rights.720p.WebRip.ReEnc-DeeJayAhmed.srt88.76 KiB
Billions.S01E03.Yumtime.720p.WebRip.ReEnc-DeeJayAhmed.mkv409.58 MiB
Billions.S01E03.Yumtime.720p.WebRip.ReEnc-DeeJayAhmed.srt92.15 KiB
Billions.S01E04.Short.Squeeze.720p.WebRip.ReEnc-DeeJayAhmed.mkv407.84 MiB
Billions.S01E04.Short.Squeeze.720p.WebRip.ReEnc-DeeJayAhmed.srt90.21 KiB
Billions.S01E05.The.Good.Life.720p.WebRip.ReEnc-DeeJayAhmed.mkv432.37 MiB
Billions.S01E05.The.Good.Life.720p.WebRip.ReEnc-DeeJayAhmed.srt82.44 KiB
Billions.S01E06.The.Deal.720p.WebRip.ReEnc-DeeJayAhmed.mkv431.35 MiB
Billions.S01E06.The.Deal.720p.WebRip.ReEnc-DeeJayAhmed.srt83.78 KiB
Billions.S01E07.The.Punch.720p.WebRip.ReEnc-DeeJayAhmed.mkv421.51 MiB
Billions.S01E07.The.Punch.720p.WebRip.ReEnc-DeeJayAhmed.srt91.04 KiB
Billions.S01E08.Boasts.And.Rails.720p.WebRip.ReEnc-DeeJayAhmed.mkv414.15 MiB
Billions.S01E08.Boasts.And.Rails.720p.WebRip.ReEnc-DeeJayAhmed.srt79.57 KiB
Billions.S01E09.Where.The.Fck.Is.Donnie.720p.WebRip.ReEnc-DeeJayAhmed.mkv412.3 MiB
Billions.S01E09.Where.The.Fck.Is.Donnie.720p.WebRip.ReEnc-DeeJayAhmed.srt76.7 KiB
Billions.S01E10.Quality.Of.Life.720p.WebRip.ReEnc-DeeJayAhmed.mkv425.16 MiB
Billions.S01E10.Quality.Of.Life.720p.WebRip.ReEnc-DeeJayAhmed.srt78.8 KiB
Billions.S01E11.Magical.Thinking.720p.WebRip.ReEnc-DeeJayAhmed.mkv421.92 MiB
Billions.S01E11.Magical.Thinking.720p.WebRip.ReEnc-DeeJayAhmed.srt93.75 KiB
Billions.S01E12.The.Conversation.720p.WebRip.ReEnc-DeeJayAhmed.mkv412.78 MiB
Billions.S01E12.The.Conversation.720p.WebRip.ReEnc-DeeJayAhmed.srt75.92 KiB
DeeJayAhmed Facebook Page.url70 B
DeeJayAhmed ReEncodes.txt809 B
DeeJayAhmed Website.url53 B

Description

DeeJayAhmed  
http://www.DeeJayAhmed.com

Keep Seeding!!=)) 
Do Comment On The A/V Quality Considering The Size Of The File..!
Help Me By Donating Bitcoins : 14i1UCWye2SCjoAHR5u6LDswWgAy55dxAv

Video 
ID : 1 
Format : AVC 
Format/Info : Advanced Video Codec 
Format profile : [email protected] 
Format settings, CABAC : Yes 
Format settings, ReFrames : 8 frames 
Codec ID : V_MPEG4/ISO/AVC 
Duration : 59mn 29s 
Bit rate : 948 Kbps 
Width : 1 280 pixels 
Height : 720 pixels 
Display aspect ratio : 16:9 
Frame rate mode : Constant 
Frame rate : 23.976 (24000/1001) fps 
Color space : YUV 
Chroma subsampling : 4:2:0 
Bit depth : 8 bits 
Scan type : Progressive 
Bits/(Pixel*Frame) : 0.043 
Stream size : 403 MiB (94%) 
Default : Yes 
Forced : No 

Audio 
ID : 2 
Format : AAC 
Format/Info : Advanced Audio Codec 
Format profile : HE-AAC / LC 
Codec ID : A_AAC 
Duration : 59mn 30s 
Bit rate : 64.0 Kbps 
Channel(s) : 2 channels 
Channel positions : Front: L R 
Sampling rate : 48.0 KHz / 24.0 KHz 
Frame rate : 23.438 fps (1024 spf) 
Compression mode : Lossy 
Stream size : 27.2 MiB (6%) 
Language : English 
Default : Yes 
Forced : No

Sharing Widget


Download torrent
4.9 GiB 
seeders:141
leechers:21
Billions S01 Season 1 720p WebRip ReEnc-DeeJayAhmed



To share this torrent use the code below and insert it into comments, status messages, forum posts or your signature.

Torrent: Billions S01 Season 1 720p WebRip ReEnc-DeeJayAhmed

Trackers

tracker name
udp://tracker.coppersurfer.tk:6969/announce
udp://9.rarbg.me:2710/announce
udp://p4p.arenabg.ch:1337/announce
udp://tracker.leechers-paradise.org:6969/announce
udp://eddie4.nl:6969/announce
udp://thetracker.org:80/announce
udp://tracker.coppersurfer.tk:6969
udp://explodie.org:6969/announce
udp://tracker.aletorrenty.pl:2710/announce
udp://9.rarbg.to:2710/announce
udp://torrent.gresille.org:80/announce
udp://tracker.opentrackr.org:1337/announce
udp://tracker.piratepublic.com:1337/announce
udp://tracker.sktorrent.net:6969/announce
udp://zer0day.ch:1337/announce
??Torrent compatible trackers list

Locations

name
KickassTorrents
Torrent hash: D33B467E45A7699FEB2473304B757207842D927E

All Comments

audio
0/10
video
0/10
please, leave only comments related to that torrent
Sign In

Report a bug Open chat